lunes, 11 de julio de 2011

X-Men Primera Generación 2011 DVDRip XVID AC3 [WU/UPS/FLS]

X-Men Primera Generación 2011 DVDRip XVID AC3 
Subtitulos en Español Incluidos (Archivo SRT) 

 

 
= Descripción = 

Clasificación: 8,1/10 
Director:: Matthew Vaughn 
Escritores:: Ashley Miller 
Fecha de Estreno:: 3 junio 2011 (Estados Unidos) 
Género:: Acción | Aventura | Drama | Ciencia-Ficción 
Conocido como:: "X-Men: First Class" - Estados Unidos (título original) "X-Men: Primera Generación" - Colombia (imdb display title) 
Duración:: 132 min 
País:: Estados Unidos 
Idioma:: Inglés | Alemán | Francés | Español | Ruso 
Color:: Color 
Locaciones:: Englefield House, Theale, Reading, Berkshire, England, Reino Unido 
Mas información en: http://www.imdb.es/title/tt1270798/ 

 
= NFO = 

Sources: 
Video: Russian DVD-9 
Ljudi.Iks.Pervyj.klass.2011.D.DVD.ELEKTRI4KA 
Audio: Imagines Line Thx 

General 
Complete name : X-Men.First.Class.2011.R5.DVDRip.XVID.AC3-5.1.HQ.Hive-CM8.avi 
Format : AVI 
Format/Info : Audio Video Interleave 
File size : 1.94 GiB 
Duration : 2h 6mn 
Overall bit rate : 2 194 Kbps 
Writing application : Nandub v1.0rc2 
Writing library : Nandub build 1853/release 

Video 
ID : 0 
Format : MPEG-4 Visual 
Format profile : Advanced Simple@L5 
Format settings, BVOP : 2 
Format settings, QPel : Yes 
Format settings, GMC : No warppoints 
Format settings, Matrix : Default (H.263) 
Muxing mode : Packed bitstream 
Codec ID : XVID 
Codec ID/Hint : XviD 
Duration : 2h 6mn 
Bit rate : 1 800 Kbps 
Width : 720 pixels 
Height : 304 pixels 
Display aspect ratio : 2.35:1 
Frame rate : 25.000 fps 
Color space : YUV 
Chroma subsampling : 4:2:0 
Bit depth : 8 bits 
Scan type : Progressive 
Compression mode : Lossy 
Bits/(Pixel*Frame) : 0.329 
Stream size : 1.59 GiB (82%) 
Writing library : XviD 1.2.1 (UTC 2008-12-04) 

Audio 
ID : 1 
Format : AC-3 
Format/Info : Audio Coding 3 
Mode extension : CM (complete main) 
Codec ID : 2000 
Duration : 2h 6mn 
Bit rate mode : Constant 
Bit rate : 384 Kbps 
Channel(s) : 6 channels 
Channel positions : Front: L C R, Side: L R, LFE 
Sampling rate : 48.0 KHz 
Bit depth : 16 bits 
Compression mode : Lossy 
Stream size : 347 MiB (18%) 
Alignment : Split accross interleaves 
Interleave, duration : 40 ms (1.00 video frame) 
Interleave, preload duration : 500 ms 


 
= Trailer = 





Link: http://www.youtube.com/watch?v=QmIJnQgkBFs 




 
= Imágenes = 

 
 
 
 
 

* Tamaño real, pinchar para ver en grande 

 
= Enlaces = 

NOTA: Los enlaces estan encriptados, debes usar un programa como CryptLoad (CCF), jDownloader (Click'n'load, DLC) para poder bajar los archivos, puedes buscar en Google mas información. 

ENLACES INTERCAMBIABLES 
3 MIRROR DISTINTOS 
Archivo de subtitulo SRT incluido 

INFO 
* 2 links x 750 MB 
* 1 link x 483 MB 

 

http://share-links.biz/_dsqp5olhkvv8 



 

http://share-links.biz/_yrqp5olvy4nd2 



Cualquier problema no duden en comentar o si mueren los links para re subirlos. 

No hay comentarios:

Publicar un comentario en la entrada